  0
SECTION
  2
HEADER
  9
$ACADVER
  1
AC1014
  9
$ACADMAINTVER
 70
     9
  9
$DWGCODEPAGE
  3
ANSI_1252
  9
$INSBASE
 10
0.0
 20
0.0
 30
0.0
  9
$EXTMIN
 10
2.969557768167149
 20
3.817844505771602
 30
0.0
  9
$EXTMAX
 10
9.33884801300276
 20
7.831711149343679
 30
0.0
  9
$LIMMIN
 10
0.0
 20
0.0
  9
$LIMMAX
 10
12.0
 20
9.0
  9
$ORTHOMODE
 70
     0
  9
$REGENMODE
 70
     1
  9
$FILLMODE
 70
     1
  9
$QTEXTMODE
 70
     0
  9
$MIRRTEXT
 70
     1
  9
$DRAGMODE
 70
     2
  9
$LTSCALE
 40
1.0
  9
$OSMODE
 70
     0
  9
$ATTMODE
 70
     1
  9
$TEXTSIZE
 40
0.2
  9
$TRACEWID
 40
0.05
  9
$TEXTSTYLE
  7
STANDARD
  9
$CLAYER
  8
0
  9
$CELTYPE
  6
BYLAYER
  9
$CECOLOR
 62
   256
  9
$CELTSCALE
 40
1.0
  9
$DELOBJ
 70
     1
  9
$DISPSILH
 70
     0
  9
$DIMSCALE
 40
1.0
  9
$DIMASZ
 40
0.18
  9
$DIMEXO
 40
0.0625
  9
$DIMDLI
 40
0.38
  9
$DIMRND
 40
0.0
  9
$DIMDLE
 40
0.0
  9
$DIMEXE
 40
0.18
  9
$DIMTP
 40
0.0
  9
$DIMTM
 40
0.0
  9
$DIMTXT
 40
0.18
  9
$DIMCEN
 40
0.09
  9
$DIMTSZ
 40
0.0
  9
$DIMTOL
 70
     0
  9
$DIMLIM
 70
     0
  9
$DIMTIH
 70
     1
  9
$DIMTOH
 70
     1
  9
$DIMSE1
 70
     0
  9
$DIMSE2
 70
     0
  9
$DIMTAD
 70
     0
  9
$DIMZIN
 70
     0
  9
$DIMBLK
  1

  9
$DIMASO
 70
     1
  9
$DIMSHO
 70
     1
  9
$DIMPOST
  1

  9
$DIMAPOST
  1

  9
$DIMALT
 70
     0
  9
$DIMALTD
 70
     2
  9
$DIMALTF
 40
25.4
  9
$DIMLFAC
 40
1.0
  9
$DIMTOFL
 70
     0
  9
$DIMTVP
 40
0.0
  9
$DIMTIX
 70
     0
  9
$DIMSOXD
 70
     0
  9
$DIMSAH
 70
     0
  9
$DIMBLK1
  1

  9
$DIMBLK2
  1

  9
$DIMSTYLE
  2
STANDARD
  9
$DIMCLRD
 70
     0
  9
$DIMCLRE
 70
     0
  9
$DIMCLRT
 70
     0
  9
$DIMTFAC
 40
1.0
  9
$DIMGAP
 40
0.09
  9
$DIMJUST
 70
     0
  9
$DIMSD1
 70
     0
  9
$DIMSD2
 70
     0
  9
$DIMTOLJ
 70
     1
  9
$DIMTZIN
 70
     0
  9
$DIMALTZ
 70
     0
  9
$DIMALTTZ
 70
     0
  9
$DIMFIT
 70
     3
  9
$DIMUPT
 70
     0
  9
$DIMUNIT
 70
     2
  9
$DIMDEC
 70
     2
  9
$DIMTDEC
 70
     2
  9
$DIMALTU
 70
     2
  9
$DIMALTTD
 70
     2
  9
$DIMTXSTY
  7
STANDARD
  9
$DIMAUNIT
 70
     0
  9
$LUNITS
 70
     2
  9
$LUPREC
 70
     4
  9
$SKETCHINC
 40
0.1
  9
$FILLETRAD
 40
0.5
  9
$AUNITS
 70
     0
  9
$AUPREC
 70
     0
  9
$MENU
  1
.
  9
$ELEVATION
 40
0.0
  9
$PELEVATION
 40
0.0
  9
$THICKNESS
 40
0.0
  9
$LIMCHECK
 70
     0
  9
$BLIPMODE
 70
     0
  9
$CHAMFERA
 40
0.5
  9
$CHAMFERB
 40
0.5
  9
$CHAMFERC
 40
1.0
  9
$CHAMFERD
 40
0.0
  9
$SKPOLY
 70
     0
  9
$TDCREATE
 40
2452177.306352430
  9
$TDUPDATE
 40
2452646.385526041
  9
$TDINDWG
 40
0.0015930556
  9
$TDUSRTIMER
 40
0.0015923611
  9
$USRTIMER
 70
     1
  9
$ANGBASE
 50
0.0
  9
$ANGDIR
 70
     0
  9
$PDMODE
 70
     0
  9
$PDSIZE
 40
0.0
  9
$PLINEWID
 40
0.0
  9
$COORDS
 70
     1
  9
$SPLFRAME
 70
     0
  9
$SPLINETYPE
 70
     6
  9
$SPLINESEGS
 70
     8
  9
$ATTDIA
 70
     1
  9
$ATTREQ
 70
     1
  9
$HANDLING
 70
-16383
  9
$HANDSEED
  5
21C
  9
$SURFTAB1
 70
     6
  9
$SURFTAB2
 70
     6
  9
$SURFTYPE
 70
     6
  9
$SURFU
 70
     6
  9
$SURFV
 70
     6
  9
$UCSNAME
  2

  9
$UCSORG
 10
0.0
 20
0.0
 30
0.0
  9
$UCSXDIR
 10
1.0
 20
0.0
 30
0.0
  9
$UCSYDIR
 10
0.0
 20
1.0
 30
0.0
  9
$PUCSNAME
  2

  9
$PUCSORG
 10
0.0
 20
0.0
 30
0.0
  9
$PUCSXDIR
 10
1.0
 20
0.0
 30
0.0
  9
$PUCSYDIR
 10
0.0
 20
1.0
 30
0.0
  9
$USERI1
 70
     0
  9
$USERI2
 70
     0
  9
$USERI3
 70
     0
  9
$USERI4
 70
     0
  9
$USERI5
 70
     0
  9
$USERR1
 40
0.0
  9
$USERR2
 40
0.0
  9
$USERR3
 40
0.0
  9
$USERR4
 40
0.0
  9
$USERR5
 40
0.0
  9
$WORLDVIEW
 70
     1
  9
$SHADEDGE
 70
     3
  9
$SHADEDIF
 70
    70
  9
$TILEMODE
 70
     1
  9
$MAXACTVP
 70
    64
  9
$PINSBASE
 10
0.0
 20
0.0
 30
0.0
  9
$PLIMCHECK
 70
     0
  9
$PEXTMIN
 10
1.000000000000000E+20
 20
1.000000000000000E+20
 30
1.000000000000000E+20
  9
$PEXTMAX
 10
-1.000000000000000E+20
 20
-1.000000000000000E+20
 30
-1.000000000000000E+20
  9
$PLIMMIN
 10
0.0
 20
0.0
  9
$PLIMMAX
 10
12.0
 20
9.0
  9
$UNITMODE
 70
     0
  9
$VISRETAIN
 70
     1
  9
$PLINEGEN
 70
     0
  9
$PSLTSCALE
 70
     1
  9
$TREEDEPTH
 70
  3020
  9
$PICKSTYLE
 70
     1
  9
$CMLSTYLE
  2
STANDARD
  9
$CMLJUST
 70
     0
  9
$CMLSCALE
 40
1.0
  9
$PROXYGRAPHICS
 70
     1
  9
$MEASUREMENT
 70
     0
  0
ENDSEC
  0
SECTION
  2
CLASSES
  0
CLASS
  1
ACDBDICTIONARYWDFLT
  2
AcDbDictionaryWithDefault
  3
AutoCAD 2000
 90
        0
280
     0
281
     0
  0
CLASS
  1
ACDBPLACEHOLDER
  2
AcDbPlaceHolder
  3
AutoCAD 2000
 90
        0
280
     0
281
     0
  0
CLASS
  1
LAYOUT
  2
AcDbLayout
  3
AutoCAD 2000
 90
        0
280
     0
281
     0
  0
CLASS
  1
LONG_TRANSACTION
  2
AcDbLongTransaction
  3
AutoCAD 2000
 90
        0
280
     0
281
     0
  0
CLASS
  1
LWPOLYLINE
  2
AcDbPolyline
  3
AutoCAD 2000
 90
        0
280
     0
281
     1
  0
CLASS
  1
HATCH
  2
AcDbHatch
  3
AutoCAD 2000
 90
        0
280
     0
281
     1
  0
CLASS
  1
XRECORD
  2
AcDbXrecord
  3
AutoCAD 2000
 90
        0
280
     0
281
     0
  0
ENDSEC
  0
SECTION
  2
TABLES
  0
TABLE
  2
VPORT
  5
8
330
0
100
AcDbSymbolTable
 70
     3
  0
VPORT
  5
1F5
330
8
100
AcDbSymbolTableRecord
100
AcDbViewportTableRecord
  2
*ACTIVE
 70
     0
 10
0.0
 20
0.0
 11
1.0
 21
1.0
 12
6.581341409085397
 22
5.283088231257247
 13
0.0
 23
0.0
 14
0.5
 24
0.5
 15
0.5
 25
0.5
 16
0.0
 26
0.0
 36
1.0
 17
0.0
 27
0.0
 37
0.0
 40
9.000767080102381
 41
1.462515883100381
 42
50.0
 43
0.0
 44
0.0
 50
0.0
 51
0.0
 71
     0
 72
   100
 73
     1
 74
     3
 75
     0
 76
     0
 77
     0
 78
     0
  0
ENDTAB
  0
TABLE
  2
LTYPE
  5
5
330
0
100
AcDbSymbolTable
 70
     1
  0
LTYPE
  5
14
330
5
100
AcDbSymbolTableRecord
100
AcDbLinetypeTableRecord
  2
BYBLOCK
 70
     0
  3

 72
    65
 73
     0
 40
0.0
  0
LTYPE
  5
15
330
5
100
AcDbSymbolTableRecord
100
AcDbLinetypeTableRecord
  2
BYLAYER
 70
     0
  3

 72
    65
 73
     0
 40
0.0
  0
LTYPE
  5
16
330
5
100
AcDbSymbolTableRecord
100
AcDbLinetypeTableRecord
  2
CONTINUOUS
 70
     0
  3
Solid line
 72
    65
 73
     0
 40
0.0
  0
ENDTAB
  0
TABLE
  2
LAYER
  5
2
330
0
100
AcDbSymbolTable
 70
     4
  0
LAYER
  5
10
330
2
100
AcDbSymbolTableRecord
100
AcDbLayerTableRecord
  2
0
 70
     0
 62
     7
  6
CONTINUOUS
  0
LAYER
  5
34
330
2
100
AcDbSymbolTableRecord
100
AcDbLayerTableRecord
  2
L
 70
     0
 62
     7
  6
CONTINUOUS
  0
LAYER
  5
45
330
2
100
AcDbSymbolTableRecord
100
AcDbLayerTableRecord
  2
DEFPOINTS
 70
     0
 62
     7
  6
CONTINUOUS
  0
LAYER
  5
88
330
2
100
AcDbSymbolTableRecord
100
AcDbLayerTableRecord
  2
TX
 70
     0
 62
   150
  6
CONTINUOUS
  0
ENDTAB
  0
TABLE
  2
STYLE
  5
3
330
0
100
AcDbSymbolTable
 70
     3
  0
STYLE
  5
11
330
3
100
AcDbSymbolTableRecord
100
AcDbTextStyleTableRecord
  2
STANDARD
 70
     0
 40
0.0
 41
1.0
 50
0.0
 71
     0
 42
0.2
  3
txt
  4

  0
STYLE
  5
35
330
3
100
AcDbSymbolTableRecord
100
AcDbTextStyleTableRecord
  2
REG
 70
     0
 40
0.0
 41
1.0
 50
0.0
 71
     0
 42
0.09375
  3
E:\R13\com\fonts\ARCHITXT.SHX
  4

  0
STYLE
  5
36
330
3
100
AcDbSymbolTableRecord
100
AcDbTextStyleTableRecord
  2
DIMTXT
 70
     0
 40
0.0
 41
1.0
 50
0.0
 71
     0
 42
1.125
  3
archt.shx
  4

  0
ENDTAB
  0
TABLE
  2
VIEW
  5
6
330
0
100
AcDbSymbolTable
 70
     1
  0
VIEW
  5
B5
330
6
100
AcDbSymbolTableRecord
100
AcDbViewTableRecord
  2
OLE1
 70
     0
 40
9.000383529783603
 10
6.347426470588237
 20
5.283088231257247
 41
12.69539392497662
 11
0.0
 21
0.0
 31
1.0
 12
0.0
 22
0.0
 32
0.0
 42
50.0
 43
0.0
 44
0.0
 50
0.0
 71
     0
  0
ENDTAB
  0
TABLE
  2
UCS
  5
7
330
0
100
AcDbSymbolTable
 70
     0
  0
ENDTAB
  0
TABLE
  2
APPID
  5
9
330
0
100
AcDbSymbolTable
 70
     1
  0
APPID
  5
12
330
9
100
AcDbSymbolTableRecord
100
AcDbRegAppTableRecord
  2
ACAD
 70
     0
  0
ENDTAB
  0
TABLE
  2
DIMSTYLE
  5
A
330
0
100
AcDbSymbolTable
 70
     6
  0
DIMSTYLE
105
27
102
{ACAD_REACTORS
330
C6
330
D4
102
}
330
A
100
AcDbSymbolTableRecord
100
AcDbDimStyleTableRecord
  2
STANDARD
 70
     0
  3

  4

  5

  6

  7

 40
1.0
 41
0.18
 42
0.0625
 43
0.38
 44
0.18
 45
0.0
 46
0.0
 47
0.0
 48
0.0
140
0.18
141
0.09
142
0.0
143
25.4
144
1.0
145
0.0
146
1.0
147
0.09
 71
     0
 72
     0
 73
     1
 74
     1
 75
     0
 76
     0
 77
     0
 78
     0
170
     0
171
     2
172
     0
173
     0
174
     0
175
     0
176
     0
177
     0
178
     0
270
     2
271
     2
272
     2
273
     2
274
     2
340
11
275
     0
280
     0
281
     0
282
     0
283
     1
284
     0
285
     0
286
     0
287
     3
288
     0
  0
DIMSTYLE
105
37
330
A
100
AcDbSymbolTableRecord
100
AcDbDimStyleTableRecord
  2
1
 70
     0
  3

  4

  5

  6

  7

 40
1.0
 41
1.125
 42
0.5
 43
0.375
 44
1.19921875
 45
0.0
 46
0.5
 47
0.0
 48
0.0
140
1.125
141
0.125
142
0.0
143
25.4
144
1.0
145
0.0
146
0.8
147
0.5625
 71
     0
 72
     0
 73
     0
 74
     0
 75
     0
 76
     0
 77
     1
 78
     3
170
     0
171
     2
172
     1
173
     0
174
     1
175
     0
176
   133
177
   133
178
   150
270
     2
271
     3
272
     3
273
     2
274
     2
340
36
275
     0
280
     0
281
     0
282
     0
283
     1
284
     0
285
     0
286
     0
287
     4
288
     0
  0
DIMSTYLE
105
38
330
A
100
AcDbSymbolTableRecord
100
AcDbDimStyleTableRecord
  2
1$2
 70
     0
  3

  4

  5
DOTSMALL
  6

  7

 40
1.0
 41
1.5
 42
0.5
 43
0.375
 44
1.19921875
 45
0.0
 46
0.5
 47
0.0
 48
0.0
140
0.75
141
0.125
142
0.0
143
25.4
144
1.0
145
0.0
146
0.8
147
0.5625
 71
     0
 72
     0
 73
     0
 74
     0
 75
     0
 76
     0
 77
     1
 78
     3
170
     0
171
     2
172
     1
173
     0
174
     1
175
     0
176
   133
177
   133
178
   150
270
     2
271
     3
272
     3
273
     2
274
     2
340
36
275
     0
280
     0
281
     0
282
     0
283
     1
284
     0
285
     0
286
     0
287
     4
288
     0
  0
DIMSTYLE
105
39
330
A
100
AcDbSymbolTableRecord
100
AcDbDimStyleTableRecord
  2
1$4
 70
     0
  3

  4

  5

  6

  7
DOTSMALL
 40
1.0
 41
1.5
 42
0.5
 43
0.375
 44
1.19921875
 45
0.0
 46
0.5
 47
0.0
 48
0.0
140
0.75
141
0.125
142
0.0
143
25.4
144
1.0
145
0.0
146
0.8
147
0.5625
 71
     0
 72
     0
 73
     0
 74
     0
 75
     0
 76
     0
 77
     1
 78
     3
170
     0
171
     2
172
     1
173
     1
174
     1
175
     0
176
   133
177
   133
178
   150
270
     2
271
     3
272
     3
273
     2
274
     2
340
36
275
     0
280
     0
281
     0
282
     0
283
     1
284
     0
285
     0
286
     0
287
     4
288
     0
  0
DIMSTYLE
105
3A
330
A
100
AcDbSymbolTableRecord
100
AcDbDimStyleTableRecord
  2
1$3
 70
     0
  3

  4

  5
DOTSMALL
  6

  7

 40
1.0
 41
1.5
 42
0.5
 43
0.375
 44
1.19921875
 45
0.0
 46
0.5
 47
0.0
 48
0.0
140
0.75
141
0.125
142
0.0
143
25.4
144
1.0
145
0.0
146
0.8
147
0.5625
 71
     0
 72
     0
 73
     0
 74
     0
 75
     0
 76
     0
 77
     1
 78
     3
170
     0
171
     2
172
     1
173
     0
174
     1
175
     0
176
   133
177
   133
178
   150
270
     2
271
     3
272
     3
273
     2
274
     2
340
36
275
     0
280
     0
281
     0
282
     0
283
     1
284
     0
285
     0
286
     0
287
     4
288
     0
  0
DIMSTYLE
105
3B
330
A
100
AcDbSymbolTableRecord
100
AcDbDimStyleTableRecord
  2
1$7
 70
     0
  3

  4

  5

  6

  7

 40
1.0
 41
1.0
 42
0.5
 43
0.375
 44
1.19921875
 45
0.0
 46
0.5
 47
0.0
 48
0.0
140
0.75
141
0.125
142
0.0
143
25.4
144
1.0
145
0.0
146
0.8
147
0.5625
 71
     0
 72
     0
 73
     0
 74
     0
 75
     0
 76
     0
 77
     1
 78
     3
170
     0
171
     2
172
     1
173
     0
174
     1
175
     0
176
   133
177
   133
178
   150
270
     2
271
     3
272
     3
273
     2
274
     2
340
36
275
     0
280
     0
281
     0
282
     0
283
     1
284
     0
285
     0
286
     0
287
     4
288
     0
  0
ENDTAB
  0
TABLE
  2
BLOCK_RECORD
  5
1
330
0
100
AcDbSymbolTable
 70
     6
  0
BLOCK_RECORD
  5
1F
102
{ACAD_XDICTIONARY
360
218
102
}
330
1
100
AcDbSymbolTableRecord
100
AcDbBlockTableRecord
  2
*MODEL_SPACE
  0
BLOCK_RECORD
  5
1B
102
{ACAD_XDICTIONARY
360
216
102
}
330
1
100
AcDbSymbolTableRecord
100
AcDbBlockTableRecord
  2
*PAPER_SPACE
  0
BLOCK_RECORD
  5
2B
330
1
100
AcDbSymbolTableRecord
100
AcDbBlockTableRecord
  2
_DOT
  0
BLOCK_RECORD
  5
30
330
1
100
AcDbSymbolTableRecord
100
AcDbBlockTableRecord
  2
_DOTSMALL
  0
BLOCK_RECORD
  5
B7
330
1
100
AcDbSymbolTableRecord
100
AcDbBlockTableRecord
  2
A$C60A9403A
  0
BLOCK_RECORD
  5
C7
330
1
100
AcDbSymbolTableRecord
100
AcDbBlockTableRecord
  2
*D4
  0
BLOCK_RECORD
  5
D5
330
1
100
AcDbSymbolTableRecord
100
AcDbBlockTableRecord
  2
*D5
  0
ENDTAB
  0
ENDSEC
  0
SECTION
  2
BLOCKS
  0
BLOCK
  5
20
330
1F
100
AcDbEntity
  8
0
100
AcDbBlockBegin
  2
*MODEL_SPACE
 70
     0
 10
0.0
 20
0.0
 30
0.0
  3
*MODEL_SPACE
  1

  0
ENDBLK
  5
21
330
1F
100
AcDbEntity
  8
0
100
AcDbBlockEnd
  0
BLOCK
  5
1C
330
1B
100
AcDbEntity
 67
     1
  8
0
100
AcDbBlockBegin
  2
*PAPER_SPACE
 70
     0
 10
0.0
 20
0.0
 30
0.0
  3
*PAPER_SPACE
  1

  0
ENDBLK
  5
1D
330
1B
100
AcDbEntity
 67
     1
  8
0
100
AcDbBlockEnd
  0
BLOCK
  5
2E
330
2B
100
AcDbEntity
  8
0
100
AcDbBlockBegin
  2
_DOT
 70
     0
 10
0.0
 20
0.0
 30
0.0
  3
_DOT
  1

  0
LWPOLYLINE
  5
2C
330
2B
100
AcDbEntity
  8
L
 62
     0
100
AcDbPolyline
 90
        2
 70
     1
 43
0.5
 10
-0.25
 20
0.0
 42
1.0
 10
0.25
 20
0.0
 42
1.0
  0
LINE
  5
2D
330
2B
100
AcDbEntity
  8
L
 62
     0
100
AcDbLine
 10
-0.5
 20
0.0
 30
0.0
 11
-1.0
 21
0.0
 31
0.0
  0
ENDBLK
  5
2F
330
2B
100
AcDbEntity
  8
0
100
AcDbBlockEnd
  0
BLOCK
  5
32
330
30
100
AcDbEntity
  8
0
 48
0.116666
100
AcDbBlockBegin
  2
_DOTSMALL
 70
     0
 10
0.0
 20
0.0
 30
0.0
  3
_DOTSMALL
  1

  0
LWPOLYLINE
  5
31
330
30
100
AcDbEntity
  8
0
  6
BYBLOCK
 62
     0
100
AcDbPolyline
 90
        2
 70
     1
 43
0.5
 10
-0.0625
 20
0.0
 42
1.0
 10
0.0625
 20
0.0
 42
1.0
  0
ENDBLK
  5
33
330
30
100
AcDbEntity
  8
0
 48
0.116666
100
AcDbBlockEnd
  0
BLOCK
  5
B8
330
B7
100
AcDbEntity
  8
0
100
AcDbBlockBegin
  2
A$C60A9403A
 70
     0
 10
0.0
 20
0.0
 30
0.0
  3
A$C60A9403A
  1

  0
ENDBLK
  5
B9
330
B7
100
AcDbEntity
  8
0
100
AcDbBlockEnd
  0
BLOCK
  5
D2
330
C7
100
AcDbEntity
  8
0
100
AcDbBlockBegin
  2
*D4
 70
     1
 10
0.0
 20
0.0
 30
0.0
  3
*D4
  1

  0
LINE
  5
C8
330
C7
100
AcDbEntity
  8
0
 62
     0
100
AcDbLine
 10
7.799268429613519
 20
6.683060466113754
 30
0.0
 11
7.799268429613519
 21
7.831711149343679
 31
0.0
  0
LINE
  5
C9
330
C7
100
AcDbEntity
  8
0
 62
     0
100
AcDbLine
 10
4.524268429613428
 20
6.683060466113754
 30
0.0
 11
4.524268429613428
 21
7.831711149343679
 31
0.0
  0
LINE
  5
CA
330
C7
100
AcDbEntity
  8
0
 62
     0
100
AcDbLine
 10
7.619268429613519
 20
7.651711149343679
 30
0.0
 11
6.521768429613474
 21
7.651711149343679
 31
0.0
  0
LINE
  5
CB
330
C7
100
AcDbEntity
  8
0
 62
     0
100
AcDbLine
 10
4.704268429613428
 20
7.651711149343679
 30
0.0
 11
5.801768429613473
 21
7.651711149343679
 31
0.0
  0
SOLID
  5
CC
330
C7
100
AcDbEntity
  8
0
 62
     0
100
AcDbTrace
 10
7.619268429613519
 20
7.681711149343679
 30
0.0
 11
7.619268429613519
 21
7.621711149343679
 31
0.0
 12
7.799268429613519
 22
7.651711149343679
 32
0.0
 13
7.799268429613519
 23
7.651711149343679
 33
0.0
  0
SOLID
  5
CD
330
C7
100
AcDbEntity
  8
0
 62
     0
100
AcDbTrace
 10
4.704268429613428
 20
7.681711149343679
 30
0.0
 11
4.704268429613428
 21
7.621711149343679
 31
0.0
 12
4.524268429613428
 22
7.651711149343679
 32
0.0
 13
4.524268429613428
 23
7.651711149343679
 33
0.0
  0
MTEXT
  5
CE
330
C7
100
AcDbEntity
  8
0
 62
     0
100
AcDbMText
 10
6.161768429613474
 20
7.651711149343679
 30
0.0
 40
0.18
 41
0.0
 71
     5
 72
     1
  1
\A1;3.28
1001
ACAD
1000
MTEXTBEGIN
1070
    73
1070
     1
1070
    44
1040
1.0
1070
    74
1070
     0
1000
MTEXTEND
  0
POINT
  5
CF
330
C7
100
AcDbEntity
  8
DEFPOINTS
 62
     0
100
AcDbPoint
 10
7.799268429613519
 20
6.620560466113754
 30
0.0
  0
POINT
  5
D0
330
C7
100
AcDbEntity
  8
DEFPOINTS
 62
     0
100
AcDbPoint
 10
4.524268429613428
 20
6.620560466113754
 30
0.0
  0
POINT
  5
D1
330
C7
100
AcDbEntity
  8
DEFPOINTS
 62
     0
100
AcDbPoint
 10
4.524268429613428
 20
7.651711149343679
 30
0.0
  0
ENDBLK
  5
D3
330
C7
100
AcDbEntity
  8
0
100
AcDbBlockEnd
  0
BLOCK
  5
E0
330
D5
100
AcDbEntity
  8
0
100
AcDbBlockBegin
  2
*D5
 70
     1
 10
0.0
 20
0.0
 30
0.0
  3
*D5
  1

  0
LINE
  5
D6
330
D5
100
AcDbEntity
  8
0
 62
     0
100
AcDbLine
 10
4.961768429613428
 20
7.120560466113754
 30
0.0
 11
3.74836594408266
 21
7.120560466113754
 31
0.0
  0
LINE
  5
D7
330
D5
100
AcDbEntity
  8
0
 62
     0
100
AcDbLine
 10
4.961768429613428
 20
5.120560466113754
 30
0.0
 11
3.74836594408266
 21
5.120560466113754
 31
0.0
  0
LINE
  5
D8
330
D5
100
AcDbEntity
  8
0
 62
     0
100
AcDbLine
 10
3.92836594408266
 20
6.940560466113755
 30
0.0
 11
3.92836594408266
 21
6.300560466113754
 31
0.0
  0
LINE
  5
D9
330
D5
100
AcDbEntity
  8
0
 62
     0
100
AcDbLine
 10
3.92836594408266
 20
5.300560466113754
 30
0.0
 11
3.92836594408266
 21
5.940560466113755
 31
0.0
  0
SOLID
  5
DA
330
D5
100
AcDbEntity
  8
0
 62
     0
100
AcDbTrace
 10
3.89836594408266
 20
6.940560466113755
 30
0.0
 11
3.95836594408266
 21
6.940560466113755
 31
0.0
 12
3.92836594408266
 22
7.120560466113754
 32
0.0
 13
3.92836594408266
 23
7.120560466113754
 33
0.0
  0
SOLID
  5
DB
330
D5
100
AcDbEntity
  8
0
 62
     0
100
AcDbTrace
 10
3.89836594408266
 20
5.300560466113754
 30
0.0
 11
3.95836594408266
 21
5.300560466113754
 31
0.0
 12
3.92836594408266
 22
5.120560466113754
 32
0.0
 13
3.92836594408266
 23
5.120560466113754
 33
0.0
  0
MTEXT
  5
DC
330
D5
100
AcDbEntity
  8
0
 62
     0
100
AcDbMText
 10
3.928365944082659
 20
6.120560466113755
 30
0.0
 40
0.18
 41
0.0
 71
     5
 72
     1
  1
\A1;2.00
1001
ACAD
1000
MTEXTBEGIN
1070
    73
1070
     1
1070
    44
1040
1.0
1070
    74
1070
     0
1000
MTEXTEND
  0
POINT
  5
DD
330
D5
100
AcDbEntity
  8
DEFPOINTS
 62
     0
100
AcDbPoint
 10
5.024268429613428
 20
7.120560466113754
 30
0.0
  0
POINT
  5
DE
330
D5
100
AcDbEntity
  8
DEFPOINTS
 62
     0
100
AcDbPoint
 10
5.024268429613428
 20
5.120560466113754
 30
0.0
  0
POINT
  5
DF
330
D5
100
AcDbEntity
  8
DEFPOINTS
 62
     0
100
AcDbPoint
 10
3.92836594408266
 20
5.120560466113754
 30
0.0
  0
ENDBLK
  5
E1
330
D5
100
AcDbEntity
  8
0
100
AcDbBlockEnd
  0
ENDSEC
  0
SECTION
  2
ENTITIES
  0
LWPOLYLINE
  5
C2
330
1F
100
AcDbEntity
  8
L
 62
     5
 48
0.116666
100
AcDbPolyline
 90
        2
 70
     0
 43
0.0282
 10
2.969557768167149
 20
4.009071690010085
 10
9.33884801300276
 20
4.009071690010085
  0
TEXT
  5
C3
330
1F
100
AcDbEntity
  8
L
 62
     3
 48
0.116666
100
AcDbText
 10
3.063543573095401
 20
4.103057494938223
 30
0.0
 40
0.141
  1
SERIES 3 - 3 1/4" REC. POST W/RAD. CORNERS #1230
  7
REG
100
AcDbText
  0
TEXT
  5
C4
330
1F
100
AcDbEntity
  8
TX
 48
0.116666
100
AcDbText
 10
3.063543573095401
 20
3.821085885081946
 30
0.0
 40
0.094
  1
SCALE : FULL SIZE
  7
REG
 11
3.063543573095401
 21
3.915085885081946
 31
0.0
100
AcDbText
 73
     3
  0
DIMENSION
  5
C6
330
1F
100
AcDbEntity
  8
0
100
AcDbDimension
  2
*D4
 10
4.524268429613428
 20
7.651711149343679
 30
0.0
 11
6.161768429613474
 21
7.651711149343679
 31
0.0
 70
    32
  3
STANDARD
100
AcDbAlignedDimension
 13
7.799268429613519
 23
6.620560466113754
 33
0.0
 14
4.524268429613428
 24
6.620560466113754
 34
0.0
100
AcDbRotatedDimension
  0
DIMENSION
  5
D4
330
1F
100
AcDbEntity
  8
0
100
AcDbDimension
  2
*D5
 10
3.92836594408266
 20
5.120560466113754
 30
0.0
 11
3.928365944082659
 21
6.120560466113755
 31
0.0
 70
    32
  3
STANDARD
100
AcDbAlignedDimension
 13
5.024268429613428
 23
7.120560466113754
 33
0.0
 14
5.024268429613428
 24
5.120560466113754
 34
0.0
 50
90.0
100
AcDbRotatedDimension
  0
LWPOLYLINE
  5
164
330
1F
100
AcDbEntity
  8
L
 62
     5
100
AcDbPolyline
 90
       67
 70
     1
 43
0.0
 10
7.294417521393896
 20
7.030560466113762
 42
-0.4174985435097231
 10
7.699243025898638
 20
6.621174275252126
 10
7.699268429613383
 20
6.620560466113754
 10
7.699268429613495
 20
5.632084022823885
 42
-0.4174699563684558
 10
7.308452535690166
 20
5.245584300012685
 42
-0.0057829247895287
 10
7.299268429613519
 20
5.245560466113754
 10
7.017268429613366
 20
5.245560466113698
 42
-0.4142135623736322
 10
6.955268429613468
 20
5.307560466113766
 10
6.95526842961339
 20
5.481060466113756
 42
0.376631455346861
 10
6.87432398516905
 20
5.573275777099749
 42
-0.3766314553468338
 10
6.861268429613417
 20
5.588149214355592
 10
6.86126842961348
 20
5.652971717871917
 42
-0.3766314553468339
 10
6.87432398516905
 20
5.667845155127757
 42
0.3766314553468609
 10
6.955268429613468
 20
5.760060466113753
 10
6.955268429613458
 20
5.923316961784774
 42
-0.4859907868338254
 10
6.993598478874535
 20
5.9534378910173
 42
0.2289900121650268
 10
7.139958330487217
 20
5.984863580175614
 42
0.9999999999973486
 10
7.082197570707287
 20
6.059023506211598
 42
-0.3103902827879309
 10
6.994023750277443
 20
6.053744556442898
 42
0.2729194727215103
 10
6.978784388866714
 20
6.053885724101444
 10
6.930622949295017
 20
6.02607970400021
 42
-0.4142135623711726
 10
6.910132568238239
 20
6.031570085056994
 10
6.895132568238206
 20
6.057550847170624
 42
-0.4142135623719853
 10
6.900622949295055
 20
6.07804122822726
 10
6.948784388866516
 20
6.105847248328506
 42
0.2729194727208534
 10
6.956281814793474
 20
6.119115506277053
 42
-0.6308025854430497
 10
7.082197570707222
 20
6.182097426015941
 42
0.9999999999980918
 10
7.139958330487262
 20
6.256257352051953
 42
0.2289900121650269
 10
6.993598478874491
 20
6.287683041210387
 42
-0.3928010983128801
 10
6.956768584319505
 20
6.308277211936495
 10
6.954542548303968
 20
6.329170187971672
 42
0.3254143140570707
 10
6.940268429613368
 20
6.339560466113805
 10
6.171768429613464
 20
6.339560466113805
 10
6.161768429613474
 20
6.329560466113814
 10
6.151768429613483
 20
6.339560466113805
 10
5.383268429613352
 20
6.339560466113826
 42
0.3254143140570707
 10
5.368994310922815
 20
6.329170187971651
 10
5.366768274907295
 20
6.308277211936469
 42
-0.3928010983134868
 10
5.329938380352413
 20
6.287683041210211
 42
0.228990012165027
 10
5.183578528739715
 20
6.256257352051914
 42
1.000000000000003
 10
5.241339288519397
 20
6.18209742601607
 42
-0.6308025854430497
 10
5.367255044433401
 20
6.119115506277049
 42
0.2729194727208534
 10
5.374752470360206
 20
6.105847248328512
 10
5.422913909931875
 20
6.078041228227228
 42
-0.4142135623689526
 10
5.428404290988581
 20
6.057550847170585
 10
5.413404290988641
 20
6.031570085057033
 42
-0.4142135623711726
 10
5.39291390993192
 20
6.026079704000192
 10
5.344752470360248
 20
6.053885724101469
 42
0.2729194727215104
 10
5.329513108949548
 20
6.053744556442826
 42
-0.3103902827881093
 10
5.241339288519427
 20
6.059023506211591
 42
0.9999999999992567
 10
5.183578528739684
 20
5.984863580175555
 42
0.228990012165027
 10
5.329938380352427
 20
5.95343789101724
 42
-0.4859907868338253
 10
5.368268429613479
 20
5.923316961784774
 10
5.368268429613556
 20
5.760060466113753
 42
0.376631455346861
 10
5.449212874057897
 20
5.66784515512776
 42
-0.3766314553468339
 10
5.46226842961353
 20
5.652971717871917
 10
5.462268429613467
 20
5.588149214355592
 42
-0.3766314553468338
 10
5.449212874057897
 20
5.573275777099752
 42
0.3766314553468612
 10
5.368268429613479
 20
5.481060466113756
 10
5.368268429613422
 20
5.307560466113766
 42
-0.4142135623730951
 10
5.306268429613353
 20
5.245560466113754
 10
5.024268429613428
 20
5.245560466113754
 42
-0.0057829247895196
 10
5.015084323536556
 20
5.245584300012738
 42
-0.4174699563683705
 10
4.624268429613337
 20
5.632084022823885
 10
4.624268429613337
 20
6.620560466113754
 10
4.624293833328522
 20
6.621174275252129
 42
-0.4174985435097228
 10
5.029119337833051
 20
7.030560466113723
  0
LWPOLYLINE
  5
1CE
330
1F
100
AcDbEntity
  8
L
 62
     5
100
AcDbPolyline
 90
       75
 70
     1
 43
0.0
 10
6.861268429613417
 20
6.130560466113745
 10
6.861268429613417
 20
6.183560466113743
 10
6.861268429613474
 20
6.183560466113743
 42
0.414213562373632
 10
6.799268429613519
 20
6.245560466113811
 10
6.799268429613519
 20
6.245560466113754
 10
5.524268429613428
 20
6.245560466113754
 10
5.524268429613428
 20
6.245560466113812
 42
0.4142135623736321
 10
5.462268429613472
 20
6.183560466113743
 10
5.46226842961353
 20
6.183560466113743
 10
5.46226842961353
 20
6.130560466113745
 10
5.462268429613303
 20
6.130560466113745
 42
0.4142135623797547
 10
5.472268429613521
 20
6.120560466113754
 10
5.52476842961353
 20
6.120560466113754
 42
-0.4142135623730951
 10
5.555768429613479
 20
6.089560466113805
 10
5.555768429613479
 20
5.901560466113817
 10
5.555768429613536
 20
5.901560466113817
 42
-0.4142135623741695
 10
5.52476842961353
 20
5.870560466113698
 10
5.52476842961353
 20
5.870560466113754
 10
5.472268429613521
 20
5.870560466113754
 42
0.4142135623797547
 10
5.462268429613303
 20
5.860560466113764
 10
5.46226842961353
 20
5.860560466113764
 10
5.46226842961353
 20
5.755560466113745
 42
0.4142135623730951
 10
5.472268429613521
 20
5.745560466113754
 10
5.52476842961353
 20
5.745560466113754
 42
-0.4142135623730951
 10
5.555768429613479
 20
5.714560466113805
 10
5.555768429613479
 20
5.526560466113817
 10
5.555768429613537
 20
5.526560466113817
 42
-0.4142135623741695
 10
5.52476842961353
 20
5.495560466113697
 10
5.52476842961353
 20
5.495560466113754
 10
5.472268429613521
 20
5.495560466113754
 42
0.4142135623730951
 10
5.46226842961353
 20
5.485560466113764
 10
5.46226842961353
 20
5.380560466113745
 10
5.462268429613303
 20
5.380560466113745
 42
0.4142135623797547
 10
5.472268429613521
 20
5.370560466113754
 10
5.52476842961353
 20
5.370560466113754
 42
-0.4142135623730951
 10
5.555768429613479
 20
5.339560466113805
 10
5.555768429613479
 20
5.130560466113745
 42
-0.4142135623730951
 10
5.545768429613488
 20
5.120560466113754
 10
5.024268429613428
 20
5.120560466113754
 42
-0.4142135623730951
 10
4.524268429613428
 20
5.620560466113754
 10
4.524268429613428
 20
6.620560466113754
 42
-0.4142135623730951
 10
5.024268429613428
 20
7.120560466113754
 10
7.299268429613519
 20
7.120560466113754
 42
-0.4142135623730951
 10
7.799268429613519
 20
6.620560466113754
 10
7.799268429613519
 20
5.620560466113754
 42
-0.4142135623730951
 10
7.299268429613519
 20
5.120560466113754
 10
6.777768429613459
 20
5.120560466113754
 42
-0.4142135623730951
 10
6.767768429613468
 20
5.130560466113745
 10
6.767768429613468
 20
5.339560466113805
 42
-0.4142135623730951
 10
6.798768429613417
 20
5.370560466113754
 10
6.851268429613426
 20
5.370560466113754
 42
0.4142135623797547
 10
6.861268429613645
 20
5.380560466113745
 10
6.861268429613417
 20
5.380560466113745
 10
6.861268429613417
 20
5.485560466113764
 10
6.861268429613645
 20
5.485560466113764
 42
0.4142135623797547
 10
6.851268429613426
 20
5.495560466113754
 10
6.798768429613417
 20
5.495560466113754
 10
6.798768429613417
 20
5.495560466113698
 42
-0.4142135623741692
 10
6.767768429613411
 20
5.526560466113817
 10
6.767768429613468
 20
5.526560466113817
 10
6.767768429613468
 20
5.714560466113805
 42
-0.4142135623730951
 10
6.798768429613417
 20
5.745560466113754
 10
6.851268429613426
 20
5.745560466113754
 42
0.4142135623797547
 10
6.861268429613645
 20
5.755560466113745
 10
6.861268429613417
 20
5.755560466113745
 10
6.861268429613417
 20
5.860560466113764
 10
6.861268429613645
 20
5.860560466113764
 42
0.4142135623797547
 10
6.851268429613426
 20
5.870560466113754
 10
6.798768429613417
 20
5.870560466113754
 10
6.798768429613417
 20
5.870560466113698
 42
-0.4142135623741692
 10
6.767768429613411
 20
5.901560466113817
 10
6.767768429613468
 20
5.901560466113817
 10
6.767768429613468
 20
6.089560466113805
 42
-0.4142135623730951
 10
6.798768429613417
 20
6.120560466113754
 10
6.851268429613426
 20
6.120560466113754
 42
0.4142135623730951
  0
ENDSEC
  0
SECTION
  2
OBJECTS
  0
DICTIONARY
  5
C
330
0
100
AcDbDictionary
  3
ACAD_GROUP
350
D
  3
ACAD_LAYOUT
350
1A
  3
ACAD_MLINESTYLE
350
17
  3
ACAD_PLOTSETTINGS
350
19
  3
ACAD_PLOTSTYLENAME
350
E
  3
ACDBHEADERROUNDTRIPXREC
350
1F6
  0
DICTIONARY
  5
218
330
1F
100
AcDbDictionary
280
     1
  3
ACAD_LAYOUTSELFREF
360
219
  0
DICTIONARY
  5
216
330
1B
100
AcDbDictionary
280
     1
  3
ACAD_LAYOUTSELFREF
360
217
  0
DICTIONARY
  5
D
102
{ACAD_REACTORS
330
C
102
}
330
C
100
AcDbDictionary
  0
DICTIONARY
  5
1A
102
{ACAD_REACTORS
330
C
102
}
330
C
100
AcDbDictionary
  0
DICTIONARY
  5
17
102
{ACAD_REACTORS
330
C
102
}
330
C
100
AcDbDictionary
  3
STANDARD
350
18
  0
DICTIONARY
  5
19
102
{ACAD_REACTORS
330
C
102
}
330
C
100
AcDbDictionary
  0
ACDBDICTIONARYWDFLT
  5
E
102
{ACAD_REACTORS
330
C
102
}
330
C
100
AcDbDictionary
281
     1
  3
Normal
350
F
100
AcDbDictionaryWithDefault
340
F
  0
DICTIONARY
  5
1F6
102
{ACAD_REACTORS
330
C
102
}
330
C
100
AcDbDictionary
  3
CEPSNTYPE
350
200
  3
FINGERPRINTGUID
350
201
  3
HYPERLINKBASE
350
1F9
  3
INSUNITS
350
1FF
  3
LAYOUTDICT
350
1FB
  3
LWETCUNION
350
1FE
  3
PLOTSETDICT
350
1FC
  3
PLOTSTYLNAMDICT
350
1FD
  3
PSVPSCALE
350
203
  3
PUCSBASE
350
206
  3
PUCSORGBACK
350
20C
  3
PUCSORGBOTTOM
350
208
  3
PUCSORGFRONT
350
20B
  3
PUCSORGLEFT
350
209
  3
PUCSORGRIGHT
350
20A
  3
PUCSORGTOP
350
207
  3
PUCSORTHOREF
350
204
  3
PUCSORTHOVIEW
350
205
  3
STYLESHEET
350
1FA
  3
TSTACKALIGN
350
1F7
  3
TSTACKSIZE
350
1F8
  3
UCSBASE
350
20F
  3
UCSORGBACK
350
215
  3
UCSORGBOTTOM
350
211
  3
UCSORGFRONT
350
214
  3
UCSORGLEFT
350
212
  3
UCSORGRIGHT
350
213
  3
UCSORGTOP
350
210
  3
UCSORTHOREF
350
20D
  3
UCSORTHOVIEW
350
20E
  3
VERSIONGUID
350
202
  0
XRECORD
  5
219
102
{ACAD_REACTORS
330
218
102
}
330
218
100
AcDbXrecord
340
1F
  0
XRECORD
  5
217
102
{ACAD_REACTORS
330
216
102
}
330
216
100
AcDbXrecord
340
1B
  0
MLINESTYLE
  5
18
102
{ACAD_REACTORS
330
17
102
}
330
17
100
AcDbMlineStyle
  2
STANDARD
 70
     0
  3

 62
   256
 51
90.0
 52
90.0
 71
     2
 49
0.5
 62
   256
  6
BYLAYER
 49
-0.5
 62
   256
  6
BYLAYER
  0
ACDBPLACEHOLDER
  5
F
102
{ACAD_REACTORS
330
E
102
}
330
E
100
AcDbPlaceHolder
280
     0
  0
XRECORD
  5
200
102
{ACAD_REACTORS
330
1F6
102
}
330
1F6
100
AcDbXrecord
 90
        0
  0
XRECORD
  5
201
102
{ACAD_REACTORS
330
1F6
102
}
330
1F6
100
AcDbXrecord
  1
{DC175E3D-AE85-11D5-9A93-0040C77E826B}
  0
XRECORD
  5
1F9
102
{ACAD_REACTORS
330
1F6
102
}
330
1F6
100
AcDbXrecord
  1

  0
XRECORD
  5
1FF
102
{ACAD_REACTORS
330
1F6
102
}
330
1F6
100
AcDbXrecord
 90
        1
  0
XRECORD
  5
1FB
102
{ACAD_REACTORS
330
1F6
102
}
330
1F6
100
AcDbXrecord
340
1A
  0
XRECORD
  5
1FE
102
{ACAD_REACTORS
330
1F6
102
}
330
1F6
100
AcDbXrecord
 90
    10781
  0
XRECORD
  5
1FC
102
{ACAD_REACTORS
330
1F6
102
}
330
1F6
100
AcDbXrecord
340
19
  0
XRECORD
  5
1FD
102
{ACAD_REACTORS
330
1F6
102
}
330
1F6
100
AcDbXrecord
340
E
  0
XRECORD
  5
203
102
{ACAD_REACTORS
330
1F6
102
}
330
1F6
100
AcDbXrecord
 40
0.0
  0
XRECORD
  5
206
102
{ACAD_REACTORS
330
1F6
102
}
330
1F6
100
AcDbXrecord
340
0
  0
XRECORD
  5
20C
102
{ACAD_REACTORS
330
1F6
102
}
330
1F6
100
AcDbXrecord
 10
0.0
 20
0.0
 30
0.0
  0
XRECORD
  5
208
102
{ACAD_REACTORS
330
1F6
102
}
330
1F6
100
AcDbXrecord
 10
0.0
 20
0.0
 30
0.0
  0
XRECORD
  5
20B
102
{ACAD_REACTORS
330
1F6
102
}
330
1F6
100
AcDbXrecord
 10
0.0
 20
0.0
 30
0.0
  0
XRECORD
  5
209
102
{ACAD_REACTORS
330
1F6
102
}
330
1F6
100
AcDbXrecord
 10
0.0
 20
0.0
 30
0.0
  0
XRECORD
  5
20A
102
{ACAD_REACTORS
330
1F6
102
}
330
1F6
100
AcDbXrecord
 10
0.0
 20
0.0
 30
0.0
  0
XRECORD
  5
207
102
{ACAD_REACTORS
330
1F6
102
}
330
1F6
100
AcDbXrecord
 10
0.0
 20
0.0
 30
0.0
  0
XRECORD
  5
204
102
{ACAD_REACTORS
330
1F6
102
}
330
1F6
100
AcDbXrecord
340
0
  0
XRECORD
  5
205
102
{ACAD_REACTORS
330
1F6
102
}
330
1F6
100
AcDbXrecord
 70
     0
  0
XRECORD
  5
1FA
102
{ACAD_REACTORS
330
1F6
102
}
330
1F6
100
AcDbXrecord
  1

  0
XRECORD
  5
1F7
102
{ACAD_REACTORS
330
1F6
102
}
330
1F6
100
AcDbXrecord
 90
        1
  0
XRECORD
  5
1F8
102
{ACAD_REACTORS
330
1F6
102
}
330
1F6
100
AcDbXrecord
 90
       70
  0
XRECORD
  5
20F
102
{ACAD_REACTORS
330
1F6
102
}
330
1F6
100
AcDbXrecord
340
0
  0
XRECORD
  5
215
102
{ACAD_REACTORS
330
1F6
102
}
330
1F6
100
AcDbXrecord
 10
0.0
 20
0.0
 30
0.0
  0
XRECORD
  5
211
102
{ACAD_REACTORS
330
1F6
102
}
330
1F6
100
AcDbXrecord
 10
0.0
 20
0.0
 30
0.0
  0
XRECORD
  5
214
102
{ACAD_REACTORS
330
1F6
102
}
330
1F6
100
AcDbXrecord
 10
0.0
 20
0.0
 30
0.0
  0
XRECORD
  5
212
102
{ACAD_REACTORS
330
1F6
102
}
330
1F6
100
AcDbXrecord
 10
0.0
 20
0.0
 30
0.0
  0
XRECORD
  5
213
102
{ACAD_REACTORS
330
1F6
102
}
330
1F6
100
AcDbXrecord
 10
0.0
 20
0.0
 30
0.0
  0
XRECORD
  5
210
102
{ACAD_REACTORS
330
1F6
102
}
330
1F6
100
AcDbXrecord
 10
0.0
 20
0.0
 30
0.0
  0
XRECORD
  5
20D
102
{ACAD_REACTORS
330
1F6
102
}
330
1F6
100
AcDbXrecord
340
0
  0
XRECORD
  5
20E
102
{ACAD_REACTORS
330
1F6
102
}
330
1F6
100
AcDbXrecord
 70
     0
  0
XRECORD
  5
202
102
{ACAD_REACTORS
330
1F6
102
}
330
1F6
100
AcDbXrecord
  1
{6110DEAE-0EB7-4EE1-8C85-A8590E42DFEE}
  0
ENDSEC
  0
EOF
